nov 16 2010

INFORMACI√ďN


Código:

General
Complete name¬† ¬† ¬† ¬† ¬† ¬† ¬† ¬† ¬† ¬† : Flo Rida ft. David Guetta - Club Can’t Handle Me (HD).m4a
Format                           : MPEG-4
Format profile                   : Base Media / Version 2
Codec ID                         : mp42
File size                        : 61.7 MiB
Duration                         : 3mn 56s
Overall bit rate                 : 2 188 Kbps
Encoded date                     : UTC 2010-07-19 01:15:07
Tagged date                      : UTC 2010-07-19 01:15:07
gsst                             : 0
gstd                             : 237028
gssd                             : B4A7DAD02HH1280328842596159
gshh                             : v8.lscache4.c.youtube.com

Video
ID                               : 2
Format                           : AVC
Format/Info                      : Advanced Video Codec
Format profile¬† ¬† ¬† ¬† ¬† ¬† ¬† ¬† ¬† ¬†: [email protected]
Format settings, CABAC           : Yes
Format settings, ReFrames        : 1 frame
Codec ID                         : avc1
Codec ID/Info                    : Advanced Video Coding
Duration                         : 3mn 56s
Bit rate mode                    : Variable
Bit rate                         : 2 059 Kbps
Maximum bit rate                 : 7 156 Kbps
Width                            : 1 280 pixels
Height                           : 532 pixels
Display aspect ratio             : 2.40:1
Frame rate mode                  : Constant
Frame rate                       : 23.976 fps
Resolution                       : 8 bits
Colorimetry                      : 4:2:0
Scan type                        : Progressive
Bits/(Pixel*Frame)               : 0.126
Stream size                      : 58.1 MiB (94%)
Title                            : (C) 2007 Google Inc. v08.13.2007.
Encoded date                     : UTC 2010-07-19 01:15:07
Tagged date                      : UTC 2010-07-19 01:15:08

Audio
ID                               : 1
Format                           : AAC
Format/Info                      : Advanced Audio Codec
Format version                   : Version 4
Format profile                   : LC
Format settings, SBR             : No
Codec ID                         : 40
Duration                         : 3mn 56s
Bit rate mode                    : Variable
Bit rate                         : 126 Kbps
Maximum bit rate                 : 210 Kbps
Channel(s)                       : 2 channels
Channel positions                : L R
Sampling rate                    : 44.1 KHz
Stream size                      : 3.56 MiB (6%)
Title                            : (C) 2007 Google Inc. v08.13.2007.
Encoded date                     : UTC 2010-07-19 01:15:07
Tagged date                      : UTC 2010-07-19 01:15:08










Club Can’t Handle Me (HD) - Links Intercambiables

Formato: M4A | Calidad: Exelente | Peso: 61,6 MB | Upload: MaX



Mensaje Privado
7989 Visitas


FavoriteLoadingA√Īadir a favoritos


Categoria: Electronica, Hip Hop y Rap, Video Clips

RSS Seguir Feed RSS Comentarios | Temas de o0MaX0o

Deja tu comentario

Debes iniciar sesion para poder enviar un comentario.

Terminos y Condiciones - Politica de Privacidad - Report Abuse - DMCA